Loading...
Error



А.В.Трехлебов.Встреча с читателями в Тольятти 17 и 18 марта 2010 [2010, Просвещение, CAMRip]

Ответить на тему
 
Автор Сообщение

Artorentino1

Стаж: 8 лет

Сообщений: 58

Россия

post 20-Фев-2012 13:35

Quote

А.В.Трехлебов.Встреча с читателями в Тольятти 17 и 18 марта 2010

Год выпуска: 2010
Страна: Россия
Жанр: Просвещение
Продолжительность: 1:38:56+1:21:53
Перевод: Не требуется
Качество: CAMRip

Описание: Встреча с читателями и единомышленниками в Тольятти 17 и 18 марта. Ответы на вопросы.
Формат: AVI
Видео кодек: H264
Аудио кодек: MP3
Видео : 1002 kbps, 512x288, 25 fps
Аудио: 128 kbps, 44.1 Khz, 2ch
General
Complete name : D:\Документы\Art\Качать\А.В.Трехлебов.Встреча с читателями в Тольятти\А.В.Трехлебов. Встреча с читателями Тольятти 17.03.2010.avi
Format : AVI
Format/Info : Audio Video Interleave
File size : 807 MiB
Duration : 1h 38mn
Overall bit rate : 1 140 Kbps

Video
ID : 0
Format : AVC
Format/Info : Advanced Video Codec
Format profile : Main@L5.1
Format settings, CABAC : Yes
Format settings, ReFrames : 1 frame
Codec ID : H264
Duration : 1h 38mn
Bit rate : 1 002 Kbps
Width : 512 pixels
Height : 288 pixels
Display aspect ratio : 16:9
Frame rate : 25.000 fps
Color space : YUV
Chroma subsampling : 4:2:0
Bit depth : 8 bits
Scan type : Progressive
Bits/(Pixel*Frame) : 0.272
Stream size : 709 MiB (88%)

Audio
ID : 1
Format : MPEG Audio
Format version : Version 1
Format profile : Layer 3
Codec ID : 55
Codec ID/Hint : MP3
Duration : 1h 38mn
Bit rate mode : Constant
Bit rate : 128 Kbps
Channel(s) : 2 channels
Sampling rate : 44.1 KHz
Compression mode : Lossy
Stream size : 90.6 MiB (11%)
Alignment : Split accross interleaves
Interleave, duration : 40 ms (1.00 video frame)
Interleave, preload duration : 155 ms


Формат: AVI
Видео кодек: DivX5
Аудио кодек: MP3
Видео : 1037 kbps, 512x288, 25 fps
Аудио: 128 kbps, 44.1 Khz, 2ch
General
Complete name : D:\Документы\Art\Качать\А.В.Трехлебов.Встреча с читателями в Тольятти\А.В.Трехлебов.Встреча с читателями в Тольятти 18.03.2010.avi
Format : AVI
Format/Info : Audio Video Interleave
File size : 688 MiB
Duration : 1h 21mn
Overall bit rate : 1 174 Kbps
Writing application : MEncoder SVN-r22963
Writing library : VirtualDub build 33815/release

Video
ID : 0
Format : MPEG-4 Visual
Format profile : Simple@L1
Format settings, BVOP : No
Format settings, QPel : No
Format settings, GMC : No warppoints
Format settings, Matrix : Default (H.263)
Codec ID : DX50
Codec ID/Hint : DivX 5
Duration : 1h 21mn
Bit rate : 1 037 Kbps
Width : 512 pixels
Height : 288 pixels
Display aspect ratio : 16:9
Frame rate : 25.000 fps
Color space : YUV
Chroma subsampling : 4:2:0
Bit depth : 8 bits
Scan type : Progressive
Compression mode : Lossy
Bits/(Pixel*Frame) : 0.281
Stream size : 607 MiB (88%)
Writing library : Lavc51.40.2

Audio
ID : 1
Format : MPEG Audio
Format version : Version 1
Format profile : Layer 3
Codec ID : 55
Codec ID/Hint : MP3
Duration : 1h 21mn
Bit rate mode : Constant
Bit rate : 128 Kbps
Channel(s) : 2 channels
Sampling rate : 44.1 KHz
Compression mode : Lossy
Stream size : 75.0 MiB (11%)
Alignment : Split accross interleaves
Interleave, duration : 40 ms (1.00 video frame)
Interleave, preload duration : 500 ms
Profile PM
Показать сообщения:    
Ответить на тему

Текущее время: 22-Авг 14:45

Часовой пояс: GMT - 2



Вы не можете начинать темы
Вы не можете отвечать на сообщения
Вы не можете редактировать свои сообщения
Вы не можете удалять свои сообщения
Вы не можете голосовать в опросах
Вы не можете прикреплять файлы к сообщениям
Вы не можете скачивать файлы


Добро пожаловать на наш трекер, который станет для вас незаменимым пособием по йоге, медитации и источником полезных советов на каждый день в разных жизненных ситуациях. Оставайтесь с нами, приглашайте друзей, делитесь ссылками на понравившиеся вам материалы. С уважением, Администрация сайта goloka.org.ua.

Традиционно, разные школы базируются на двух фундаментальных вопросах: 1) что есть мир, и 2) что\кто есть Я, иными словами чем есть всё то, что воспринимается, и кем есть тот, кто всё это воспринимает. Казалось бы уже у каждого есть ответы на данные вопросы, и потому они более не задаются. Йога базируется на том, что положенные в основу жизнедеятельности (жизни\бытия + деятельности) неверные ответы, на упомянутые выше вопросы, приводят к страданиям, впрочем верно и обратное – утвердившись в истине, достигается состояние противоположное страданиям (порой именуемое противоположным берегом сансары). ). С точки зрения теории - всё достаточно легко, а с точки зрения практики - не всё так просто (ответы, и всё что базировалось на них, повторялось длительное время, и как следствие обладают устойчивой тенденцией к дальнейшему повторению, которое ведет к дальнейшему страданию - теория не прекращает повторения всего того, что повторялось, но указывает на то, что должно прекратить повторяться. В свою очередь, администрация желает вам успехов в практике, которой мало кому хочется заниматься, в результате чего достигается только состояние 1) я знал как должно, 2) но делал как обычно, и 3) получил результат именно из второго пункта, искренне рассчитывая на результат из первого пункта :)

Великие изречения ведических писаний, которые указывают на суть:

1. Прагьянам брахма — «сознание есть Брахман» («Айтарея-упанишада» 3.3 «Ригведы»)
2. Аям атма брахма — «атман есть Брахман» («Мандукья-упанишад» 1.2 «Атхарваведы»)
3. Тат твам аси — «то ты еси» («Чхандогья-упанишада» 6.8.7 «Самаведы»)
4. Ахам брахмасми — «Я есмь Брахман» («Брихадараньяка-упанишада» 1.4.10 «Яджурведы»)