Loading...
Error



Сад Госвами Дас. Правильное Ведическое питание [2005 г., Лекция, CamRip]

Ответить на тему
 
Автор Сообщение

Artorentino1

Стаж: 7 лет 11 месяцев

Сообщений: 58

Россия

post 09-Мар-2012 07:38

Quote

Сад Госвами Дас. Правильное Ведическое питание

Год выпуска: 2005
Страна: Россия
Жанр: Лекция
Продолжительность: 0:29:40

Качество: CamRip
Формат: AVI
Видео кодек: DivX
Аудио кодек: MP3
Видео: 720x481, 781 kbps, 23.976 fps
Аудио: 192 kbps, 44.1 Khz, 2 ch

Описание: Выступление Сад Госвами Дас, последователя Бога Крышеня (в индийской традиции Бог Кришна) на тему Правильное Ведическое питание.
General
Complete name : C:\Downloads\Сад Госвами Дас. Правильное Ведическое питание.avi
Format : AVI
Format/Info : Audio Video Interleave
File size : 209 MiB
Duration : 29mn 40s
Overall bit rate : 982 Kbps
Writing library : VirtualDub build 33815/release

Video
ID : 0
Format : MPEG-4 Visual
Format settings, BVOP : 1
Format settings, QPel : No
Format settings, GMC : No warppoints
Format settings, Matrix : Default (H.263)
Muxing mode : Packed bitstream
Codec ID : DX50
Codec ID/Hint : DivX 5
Duration : 29mn 40s
Bit rate : 781 Kbps
Width : 720 pixels
Height : 480 pixels
Display aspect ratio : 3:2
Frame rate : 23.976 fps
Standard : NTSC
Color space : YUV
Chroma subsampling : 4:2:0
Bit depth : 8 bits
Scan type : Progressive
Compression mode : Lossy
Bits/(Pixel*Frame) : 0.094
Stream size : 166 MiB (79%)
Writing library : DivX 6.6.1

Audio
ID : 1
Format : MPEG Audio
Format version : Version 1
Format profile : Layer 3
Codec ID : 55
Codec ID/Hint : MP3
Duration : 29mn 40s
Bit rate mode : Constant
Bit rate : 192 Kbps
Channel(s) : 2 channels
Sampling rate : 44.1 KHz
Compression mode : Lossy
Delay relative to video : 13ms
Stream size : 40.8 MiB (20%)
Alignment : Split accross interleaves
Interleave, duration : 42 ms (1.00 video frame)
Interleave, preload duration : 500 ms
Profile PM

ishaavatar

Стаж: 9 лет 4 месяца

Сообщений: 58

Откуда: Donetsk

Украина

post 11-Мар-2012 07:27 (спустя 1 день 23 часа)

Quote

Спасибо большое
ab
Profile PM

napalme

Стаж: 9 лет 8 месяцев

Сообщений: 109

Откуда: Москва

Россия

post 11-Мар-2012 11:38 (спустя 4 часа)

Quote

УСАНИН Александр Евгеньевич
Profile PM

Indraprabha dd

Стаж: 9 лет 6 месяцев

Сообщений: 1377

post 11-Мар-2012 11:49 (спустя 11 минут)

Quote

napalme
прямые ссылки запрещены.
исправьте на vyasa.ru/philosophy/karma/karmalow/
Profile PM
Показать сообщения:    
Ответить на тему

Текущее время: 18-Июл 20:33

Часовой пояс: GMT - 2



Вы не можете начинать темы
Вы не можете отвечать на сообщения
Вы не можете редактировать свои сообщения
Вы не можете удалять свои сообщения
Вы не можете голосовать в опросах
Вы не можете прикреплять файлы к сообщениям
Вы не можете скачивать файлы


Добро пожаловать на наш трекер, который станет для вас незаменимым пособием по йоге, медитации и источником полезных советов на каждый день в разных жизненных ситуациях. Оставайтесь с нами, приглашайте друзей, делитесь ссылками на понравившиеся вам материалы. С уважением, Администрация сайта goloka.org.ua.

Традиционно, разные школы базируются на двух фундаментальных вопросах: 1) что есть мир, и 2) что\кто есть Я, иными словами чем есть всё то, что воспринимается, и кем есть тот, кто всё это воспринимает. Казалось бы уже у каждого есть ответы на данные вопросы, и потому они более не задаются. Йога базируется на том, что положенные в основу жизнедеятельности (жизни\бытия + деятельности) неверные ответы, на упомянутые выше вопросы, приводят к страданиям, впрочем верно и обратное – утвердившись в истине, достигается состояние противоположное страданиям (порой именуемое противоположным берегом сансары). ). С точки зрения теории - всё достаточно легко, а с точки зрения практики - не всё так просто (ответы, и всё что базировалось на них, повторялось длительное время, и как следствие обладают устойчивой тенденцией к дальнейшему повторению, которое ведет к дальнейшему страданию - теория не прекращает повторения всего того, что повторялось, но указывает на то, что должно прекратить повторяться. В свою очередь, администрация желает вам успехов в практике, которой мало кому хочется заниматься, в результате чего достигается только состояние 1) я знал как должно, 2) но делал как обычно, и 3) получил результат именно из второго пункта, искренне рассчитывая на результат из первого пункта :)

Великие изречения ведических писаний, которые указывают на суть:

1. Прагьянам брахма — «сознание есть Брахман» («Айтарея-упанишада» 3.3 «Ригведы»)
2. Аям атма брахма — «атман есть Брахман» («Мандукья-упанишад» 1.2 «Атхарваведы»)
3. Тат твам аси — «то ты еси» («Чхандогья-упанишада» 6.8.7 «Самаведы»)
4. Ахам брахмасми — «Я есмь Брахман» («Брихадараньяка-упанишада» 1.4.10 «Яджурведы»)