Loading...
Error



А.В.Трехлебов и И.А.Глоба в программе ''Кто с нами'' [2000, Просвещение, VHSRip]

Ответить на тему
 
Автор Сообщение

Artorentino1

Стаж: 7 лет 11 месяцев

Сообщений: 58

Россия

post 09-Мар-2012 15:16

Quote

А.В.Трехлебов и И.А.Глоба в программе ''Кто с нами''

Год выпуска: 2000
Страна: Россия
Жанр: Просвещение
Продолжительность: 0:24:30

Качество: VHSRip
Формат: AVI
Видео кодек: DivX 5
Аудио кодек: MP3
Видео: 720x576, 799 kbps, 25 fps
Аудио: 64 kbps, 24.0 Khz, 2ch

Описание: В наше время есть люди, которые возрождают славянские Традиции, потому что видят спасение России в осознание своих корней.

Были ли древние Славяне образцом для подражания или нет, на этот счет существуют разные мнения, но изучать свою Историю нужно. Люди, с которыми я хочу вас познакомить, изучая ДревнерусскиеТрадиции, почувствовали, что это близкое к Природе и отвечают их собственным взглядам на Мир.

Что характеризуется обществом, в первую очередь то, что есть потребность в друг друге. Они собираются время от времени, чтобы пообщаться, вместе отдохнуть, разделить радость праздника, но в нашем случае еще и для того, чтобы научиться того, чего не знаешь. В Ведах заложена достаточно сложная философия, поэтому тем, кто заинтересовался, без помощи компетентных людей не обойтись.

Главной Традицией общества стали заседания, на которых изучается Знания Наших Предков, изложенные в Ведах, а так же устраиваются дискусии и просматривается тематические видеоматериалы.

Вот сейчас, можно показать одну из встреч с Алексеем Васильевичем Трехлебовым - автором книги Кощуны Финиста.
General
Complete name : C:\Downloads\И.А.Глоба и А.В.Трехлебов. Программа ''Кто с нами'' ГТРК Кубань 2000.avi
Format : AVI
Format/Info : Audio Video Interleave
File size : 154 MiB
Duration : 24mn 30s
Overall bit rate : 876 Kbps
Writing application : transcode-1.0.2
Writing library : VirtualDub build 33815/release

Video
ID : 0
Format : MPEG-4 Visual
Format profile : Simple@L1
Format settings, BVOP : No
Format settings, QPel : No
Format settings, GMC : No warppoints
Format settings, Matrix : Default (H.263)
Codec ID : DX50
Codec ID/Hint : DivX 5
Duration : 24mn 30s
Bit rate : 799 Kbps
Width : 720 pixels
Height : 576 pixels
Display aspect ratio : 5:4
Frame rate : 25.000 fps
Standard : PAL
Color space : YUV
Chroma subsampling : 4:2:0
Bit depth : 8 bits
Scan type : Progressive
Compression mode : Lossy
Bits/(Pixel*Frame) : 0.077
Stream size : 140 MiB (91%)
Writing library : Lavc51.9.0

Audio
ID : 1
Format : MPEG Audio
Format version : Version 2
Format profile : Layer 3
Mode : Joint stereo
Mode extension : MS Stereo
Codec ID : 55
Codec ID/Hint : MP3
Duration : 24mn 30s
Bit rate mode : Constant
Bit rate : 64.0 Kbps
Channel(s) : 2 channels
Sampling rate : 24.0 KHz
Compression mode : Lossy
Stream size : 11.2 MiB (7%)
Alignment : Aligned on interleaves
Interleave, duration : 24 ms (0.60 video frame)
Interleave, preload duration : 504 ms
Profile PM
Показать сообщения:    
Ответить на тему

Текущее время: 18-Июл 20:31

Часовой пояс: GMT - 2



Вы не можете начинать темы
Вы не можете отвечать на сообщения
Вы не можете редактировать свои сообщения
Вы не можете удалять свои сообщения
Вы не можете голосовать в опросах
Вы не можете прикреплять файлы к сообщениям
Вы не можете скачивать файлы


Добро пожаловать на наш трекер, который станет для вас незаменимым пособием по йоге, медитации и источником полезных советов на каждый день в разных жизненных ситуациях. Оставайтесь с нами, приглашайте друзей, делитесь ссылками на понравившиеся вам материалы. С уважением, Администрация сайта goloka.org.ua.

Традиционно, разные школы базируются на двух фундаментальных вопросах: 1) что есть мир, и 2) что\кто есть Я, иными словами чем есть всё то, что воспринимается, и кем есть тот, кто всё это воспринимает. Казалось бы уже у каждого есть ответы на данные вопросы, и потому они более не задаются. Йога базируется на том, что положенные в основу жизнедеятельности (жизни\бытия + деятельности) неверные ответы, на упомянутые выше вопросы, приводят к страданиям, впрочем верно и обратное – утвердившись в истине, достигается состояние противоположное страданиям (порой именуемое противоположным берегом сансары). ). С точки зрения теории - всё достаточно легко, а с точки зрения практики - не всё так просто (ответы, и всё что базировалось на них, повторялось длительное время, и как следствие обладают устойчивой тенденцией к дальнейшему повторению, которое ведет к дальнейшему страданию - теория не прекращает повторения всего того, что повторялось, но указывает на то, что должно прекратить повторяться. В свою очередь, администрация желает вам успехов в практике, которой мало кому хочется заниматься, в результате чего достигается только состояние 1) я знал как должно, 2) но делал как обычно, и 3) получил результат именно из второго пункта, искренне рассчитывая на результат из первого пункта :)

Великие изречения ведических писаний, которые указывают на суть:

1. Прагьянам брахма — «сознание есть Брахман» («Айтарея-упанишада» 3.3 «Ригведы»)
2. Аям атма брахма — «атман есть Брахман» («Мандукья-упанишад» 1.2 «Атхарваведы»)
3. Тат твам аси — «то ты еси» («Чхандогья-упанишада» 6.8.7 «Самаведы»)
4. Ахам брахмасми — «Я есмь Брахман» («Брихадараньяка-упанишада» 1.4.10 «Яджурведы»)